Movie Import for Lumix GH5

Announcement of new releases, bugs, support, suggestions

Moderator: Stas Yatsenko

jacquesB
Posts: 1
Joined: 11.04.2017 10:30

Movie Import for Lumix GH5

Unread postby jacquesB » 11.04.2017 10:38

HI
I would like to open the 6k postfocus videos of the Lumix GH5 in order to merge the images in helicon focus pro unlimited
Below the infos on these videos

General
Complete name : I:\DCIM\100_PANA\P1000693.MP4
Format : MPEG-4
Format profile : Base Media / Version 2
Codec ID : mp42
File size : 108 MiB
Duration : 4s 505ms
Overall bit rate : 202 Mbps
Encoded date : UTC 2017-04-11 10:12:49
Tagged date : UTC 2017-04-11 10:12:49
PANA : ±dx6uÛó­IhóùéÝZÎÜ

Video
ID : 1
Format : HEVC
Format/Info : High Efficiency Video Coding
Codec ID : hvc1
Codec ID/Info : High Efficiency Video Coding
Duration : 4s 505ms
Bit rate : 201 Mbps
Width : 4 992 pixels
Height : 3 744 pixels
Display aspect ratio : 4:3
Frame rate mode : Constant
Frame rate : 29.970 fps
Bits/(Pixel*Frame) : 0.360
Stream size : 108 MiB (100%)
Encoded date : UTC 2017-04-11 10:12:49
Tagged date : UTC 2017-04-11 10:12:49

Audio
ID : 2
Format : AAC
Format/Info : Advanced Audio Codec
Format profile : LC
Codec ID : 40
Duration : 4s 505ms
Source duration : 4s 523ms
Bit rate mode : Constant
Bit rate : 128 Kbps
Channel(s) : 2 channels
Channel positions : Front: L R
Sampling rate : 48.0 KHz
Compression mode : Lossy
Stream size : 69.0 KiB (0%)
Source stream size : 69.4 KiB (0%)
Encoded date : UTC 2017-04-11 10:12:49
Tagged date : UTC 2017-04-11 10:12:49

User avatar
Stas Yatsenko
Posts: 3956
Joined: 06.05.2009 14:05
Contact:

Re: Movie Import for Lumix GH5

Unread postby Stas Yatsenko » 12.04.2017 09:03

Hi. Did you try opening it? Did it fail? I'm not sure what you posted the info for.

frank_ho
Posts: 1
Joined: 21.04.2017 09:59

Re: Movie Import for Lumix GH5 fail

Unread postby frank_ho » 21.04.2017 10:12

Hello Stas

Yes - the "open video" import of a 6Kvideo with the newest Version 6.7.1 is fail.

Here you can download a (first handheld) GH-5 6K post focus video to test it.
http://www.frank-hoppe.com/TMP/P_F_0492.MP4

Thank you for fix it in a Update.

Regards
Frank

User avatar
Stas Yatsenko
Posts: 3956
Joined: 06.05.2009 14:05
Contact:

Re: Movie Import for Lumix GH5

Unread postby Stas Yatsenko » 21.04.2017 13:06

Indeed. Thanks for supplying the sample. It works in the version of Helicon Focus that we're currently developing, but not in 6.7.1. You can install the new preview version of Helicon Focus to load these videos.

For Windows: https://drive.google.com/open?id=0B_uKrE3_LamxQkYxbjlObnYtQ2s

For Mac: https://drive.google.com/open?id=0B_uKrE3_LamxN3kwcjlacVVrSHM


Return to “Helicon Focus: Support”

Who is online

Users browsing this forum: No registered users and 4 guests